<?xml version="1.0" standalone="no"?>
<!DOCTYPE svg PUBLIC "-//W3C//DTD SVG 1.1//EN" "http://www.w3.org/Graphics/SVG/1.1/DTD/svg11.dtd" >
<svg xmlns="http://www.w3.org/2000/svg" xmlns:xlink="http://www.w3.org/1999/xlink" version="1.1">
<metadata>
Created by FontForge 20161116 at Sat Mar 20 19:06:28 2010
 By Jimmy Wärting
Pyrus FreeSans
</metadata>
<defs>
<font id="Dusseldorf" horiz-adv-x="500" >
  <font-face 
    font-family="Dusseldorf"
    font-weight="400"
    font-stretch="normal"
    units-per-em="1000"
    panose-1="2 0 5 3 4 0 0 2 0 4"
    ascent="800"
    descent="-200"
    x-height="524"
    cap-height="728"
    bbox="-80 -284 806 844"
    underline-thickness="50"
    underline-position="-100"
    unicode-range="U+0020-2212"
  />
<missing-glyph horiz-adv-x="249" 
 />
    <glyph glyph-name=".notdef" horiz-adv-x="249" 
 />
    <glyph glyph-name=".0255" 
 />
    <glyph glyph-name="L" unicode="L" horiz-adv-x="567" 
d="M279 728v-37h-118v-655l326 1l-1 192h37v-229l-479 -1v37h76v655h-76v37h235z" />
    <glyph glyph-name="C" unicode="C" horiz-adv-x="624" 
d="M530 539q-13 40 -30 71t-41.5 52.5t-58.5 32.5t-80 11q-117 0 -176 -81t-59 -262q0 -91 17.5 -156t49.5 -106t77.5 -60.5t101.5 -20.5q48 0 84.5 10t62.5 35t41.5 65.5t21.5 102.5h38q-7 -61 -20.5 -108t-41 -78.5t-73 -47.5t-115.5 -16q-140 0 -212.5 93.5t-72.5 286.5
q0 190 63.5 286t210.5 96q77 0 128.5 -29.5t83.5 -89.5v103h38v-190h-38v0z" />
    <glyph glyph-name="E" unicode="E" horiz-adv-x="589" 
d="M504 692l-337 -1v-294l276 2v-37l-276 -2v-323l336 1l-1 192h42l1 -229l-501 -1v37h78v654h-78v37l501 1v-165h-41v128z" />
    <glyph glyph-name="F" unicode="F" horiz-adv-x="567" 
d="M523 732v-165h-40v128l-322 -1v-294l266 2v-37l-266 -2v-324h118v-37h-235v37h77v655h-77v37z" />
    <glyph glyph-name="H" unicode="H" horiz-adv-x="719" 
d="M47 37h77v655h-75v37h235v-37h-120v-295h395v295h-120v37h235v-37h-75v-655h75v-37h-235v37h120v323h-395v-323h118v-37h-235v37z" />
    <glyph glyph-name="I" unicode="I" horiz-adv-x="323" 
d="M279 728v-37h-98v-655h98v-37h-235v37h95v655h-95v37h235z" />
    <glyph glyph-name="Q" unicode="Q" horiz-adv-x="628" 
d="M303 -12q-62 1 -110 21.5t-81 64.5t-50.5 115t-17.5 174q0 105 18 177t52.5 116.5t84.5 64.5t114 20q63 0 113 -20t85.5 -64.5t54 -116.5t18.5 -177q0 -99 -17 -168.5t-48.5 -114t-76.5 -66t-102 -25.5v-119q0 -50 21 -82.5t72 -32.5t72 32.5t21 82.5v32h37v-32
q0 -32 -8 -60t-24.5 -49t-40.5 -33t-57 -12t-57.5 12t-40.5 33t-24 49t-8 60v118zM85 363q0 -101 17 -166t47 -103t72.5 -52.5t93.5 -14.5q62 0 106 23t71.5 66t40.5 105.5t13 141.5t-13 142t-40.5 107t-71.5 67.5t-106 23.5q-51 0 -93.5 -15.5t-73 -54.5t-47 -104.5
t-16.5 -165.5z" />
    <glyph glyph-name="G" unicode="G" horiz-adv-x="589" 
d="M519 112q-26 -69 -76 -103t-131 -34q-60 0 -111 24.5t-87.5 73.5t-57 121.5t-20.5 168.5q0 192 67.5 291t197.5 99q137 0 202 -126v117h37v-205h-37q-13 40 -30 72t-41 54.5t-55.5 34.5t-73.5 12q-52 0 -94 -20.5t-71 -63.5t-45 -108.5t-16 -156.5t17.5 -156.5t49 -108
t75 -63t95.5 -21.5q44 0 79 13.5t61 45t42.5 82.5t22.5 126v1h-196v36h230v-335h-34v129z" />
    <glyph glyph-name="T" unicode="T" horiz-adv-x="649" 
d="M568 695l-221 -1v-654h78v-37h-201v37h78v654h-221v-127h-37v164h30l501 1v-1h30v-164h-37v128z" />
    <glyph glyph-name="U" unicode="U" horiz-adv-x="694" 
d="M664 728v-37h-75v-364q0 -105 -19 -171t-52 -103.5t-76.5 -51t-93.5 -13.5q-54 0 -98.5 17.5t-76 60t-49 114.5t-17.5 182v329h-77v37h235v-37h-119q1 -38 1 -118.5v-210.5q0 -100 14.5 -165.5t41 -104t64 -54t83.5 -15.5q47 0 84 13.5t63.5 51t40.5 104t14 171.5l-1 328
h-122v37h235z" />
    <glyph glyph-name="P" unicode="P" horiz-adv-x="586" 
d="M118 37v655h-74v37h187q76 1 128.5 -10.5t87 -30.5t53.5 -42.5t28.5 -46.5t11 -43.5t1.5 -32.5q0 -14 -1.5 -36.5t-10 -47.5t-27.5 -50t-53.5 -45t-88 -32.5t-131.5 -12.5h-70v-262h120v-37h-235v37h74zM159 692v-357h70q66 0 112 10t76.5 26t48 36.5t26.5 41t11 40
t2 34.5q0 12 -2 30t-10.5 37t-26 38t-48 33.5t-76.5 23t-111 7.5h-72z" />
    <glyph glyph-name="m" unicode="m" horiz-adv-x="824" 
d="M118 0l-77 1v37l77 -1v450l-78 1v37l116 -1v-129q12 39 29.5 66t38.5 43.5t43.5 23.5t43.5 7q29 0 50 -5.5t35 -21t22.5 -42.5t13.5 -69q13 38 32 64.5t41 42.5t45 23t44 7q41 0 66.5 -11.5t40 -45t19.5 -94t6 -158.5h-1l1 -189h78v-37l-115 1h-1v31q-1 21 -1 65t1 129
q0 88 -5 142t-16.5 82.5t-29.5 37.5t-44 9q-24 0 -51 -10t-50 -39t-38 -82t-15 -139v-189h80v-37l-116 1v225q0 88 -5 142t-16 82.5t-29 37.5t-44 9q-24 0 -50.5 -10.5t-49 -39.5t-37.5 -82t-15 -140v-189h77v-37z" />
    <glyph glyph-name="R" unicode="R" horiz-adv-x="664" 
d="M118 36v655h-74v37h187q76 1 128.5 -10.5t87 -30.5t53.5 -42.5t28.5 -46.5t11 -43.5t1.5 -32.5q0 -18 -3 -47t-18.5 -60t-50 -58.5t-98.5 -43.5l160 -276h109v-37h-135v3h-1l-175 301q-44 -6 -100 -6h-70v-262h120v-37h-235v37h74zM159 691v-357h70q66 0 111.5 10t76 26
t48 36.5t26 41t10.5 40t2 34.5q0 12 -2 30t-10.5 37t-25.5 38t-47 33.5t-76 23t-111 7.5h-72z" />
    <glyph glyph-name="V" unicode="V" horiz-adv-x="692" 
d="M692 728v-36h-71l-257 -692h-37l-257 692h-70v36h235v-36h-124l235 -628l236 628h-125v36h235z" />
    <glyph glyph-name="A" unicode="A" horiz-adv-x="692" 
d="M457 -1v35h127l-96 265h-284l-95 -265h126v-35h-235v35h66l240 659h-94v35h273v-35h-98l240 -659h65v-35h-235zM218 336h257l-128 357h-1z" />
    <glyph glyph-name="N" unicode="N" horiz-adv-x="712" 
d="M44 35h77v654l-75 1v37l116 -1v-3l391 -649v616h-120v37h235v-37h-75v-692h-40v1l-1 -1l-391 650v-613h118v-37h-235v37z" />
    <glyph glyph-name="B" unicode="B" horiz-adv-x="577" 
d="M44 695v37h167q100 0 154.5 -19t79.5 -46t29 -56.5t4 -50.5q0 -8 -1.5 -26t-11.5 -39t-31.5 -42t-61.5 -36q63 -16 97.5 -43.5t50 -58.5t18.5 -59.5t3 -46.5q0 -12 -1.5 -32.5t-11 -43.5t-28.5 -46.5t-53.5 -42.5t-87 -30.5t-128.5 -10.5h-187v37h74v655h-74zM231 40
q65 -2 111 7t76.5 23.5t48 33.5t26 38t10.5 37t2 30q0 21 -5.5 52t-31 60.5t-77 51.5t-143.5 24h-14h-5h-70v-357h72zM234 433q73 0 114 16t61.5 37t25 42t4.5 32q0 16 -4 39t-25.5 44.5t-68 36.5t-130.5 15h-52v-262h70h5z" />
    <glyph glyph-name="D" unicode="D" horiz-adv-x="668" 
d="M106 729h112.5t117.5 -8.5t111 -28.5t93 -60.5t64 -105.5t24 -162t-22 -161.5t-60 -105t-89 -61t-109 -28.5t-120 -7.5t-122 0.5h-62v38h62h33v654h-95v36h62zM586 364q0 79 -18 134t-49 91.5t-71.5 57.5t-85.5 31t-92 12.5t-89 2.5v-655q49 -1 98 1t93.5 11t83.5 29
t68 56.5t45.5 92t16.5 136.5z" />
    <glyph glyph-name="W" unicode="W" horiz-adv-x="744" 
d="M744 728v-37h-66l-145 -691h-56l-106 507l-102 -507h-56l-147 691h-66v37h235v-37h-127l131 -632l111 521h43l112 -519l131 630h-127v37h235z" />
    <glyph glyph-name="K" unicode="K" horiz-adv-x="650" 
d="M370 35h123l-249 362l-85 -84v-277h120v-37h-235v37h74v656h-74v36h235v-36h-120v-328l330 327h-118v36h235v-36h-63l-269 -265l269 -391h62v-36h-235v36z" />
    <glyph glyph-name="Z" unicode="Z" horiz-adv-x="598" 
d="M545 693l-455 -656h427v126h37v-164h-37v1h-472v36l455 657l-419 -1v-127h-37v164h30l452 1h19v-37z" />
    <glyph glyph-name="space" unicode=" " horiz-adv-x="249" 
 />
    <glyph glyph-name="X" unicode="X" horiz-adv-x="683" 
d="M424 36h126l-214 309l-201 -309h124v-36h-235v36h66l224 341l-219 315h-71v36h235v-36h-119l198 -285l207 285h-121v36h235v-36h-69l-229 -318l234 -338h64v-36h-235v36z" />
    <glyph glyph-name="M" unicode="M" horiz-adv-x="715" 
d="M44 37h73v656h-71v35h235v-35h-86l167 -491l162 491h-88v35h235v-35h-71v-656h71v-37h-235v37h125v658l-180 -548h-38l-187 549v-659h123v-37h-235v37z" />
    <glyph glyph-name="Y" unicode="Y" horiz-adv-x="685" 
d="M316 36v301l-220 355h-71v36h235v-36h-119l195 -321l210 321h-121v36h235v-36h-69l-233 -355v-301h98v-37h-235v37h95z" />
    <glyph glyph-name="J" unicode="J" horiz-adv-x="420" 
d="M376 728v-37h-69l1 -577q0 -74 -33.5 -114t-100.5 -40q-33 0 -57 12t-40.5 33t-24.5 49t-8 60h37q0 -50 21 -82.5t72 -32.5t71.5 32.5t20.5 82.5l-1 577h-124v37h235z" />
    <glyph glyph-name="S" unicode="S" horiz-adv-x="593" 
d="M43 556q0 26 7.5 57t33 58t74.5 45t132 18h4q45 0 79 -7t59 -19.5t42.5 -29t28.5 -34.5v84h38v-206h-38v23q-1 19 -8.5 45.5t-29.5 50.5t-63 41t-108 17q-71 0 -112.5 -13.5t-64 -34.5t-29.5 -46t-7 -49q0 -26 10 -51t34 -46.5t65.5 -38.5t104.5 -27q97 -16 149.5 -43
t76.5 -57t27.5 -60.5t3.5 -53.5q0 -27 -9 -60.5t-36.5 -62.5t-78 -48.5t-133.5 -18.5h-4q-43 0 -76 7t-58.5 19.5t-44 28.5t-30.5 34l1 -78h-42l-1 229h42v-33q0 -18 7 -47.5t29 -57t64 -47.5t113 -20t114.5 16.5t66.5 40.5t30.5 51t7.5 47q0 23 -4 49t-25 50.5t-65 45
t-125 34.5q-87 15 -137.5 38.5t-76 50.5t-32 55.5t-6.5 53.5z" />
    <glyph glyph-name="o" unicode="o" horiz-adv-x="502" 
d="M40 260q0 78 15 130.5t42 84.5t66 46t87 14t87 -14t67 -46t43 -84.5t15 -130.5q0 -77 -15 -129.5t-43 -84t-67 -45t-87 -13.5t-87 13.5t-66 45t-42 84t-15 129.5zM84 260q0 -71 12 -116t34.5 -71t53 -36t68.5 -10q45 0 77.5 16t52.5 46.5t29.5 73.5t9.5 97t-9.5 98
t-29.5 74.5t-52.5 47.5t-77.5 17q-38 0 -69 -10.5t-53 -37t-34 -72.5t-12 -117z" />
    <glyph glyph-name="b" unicode="b" horiz-adv-x="595" 
d="M165 729v-284q24 50 65.5 70.5t100.5 20.5q48 0 87 -14t67 -46t43 -84.5t15 -130.5q0 -77 -15 -129.5t-43 -84t-67 -45t-87 -13.5q-59 0 -100.5 20t-65.5 69v-77h-2v-1h-135v37h95v655h-95v37h137zM165 261q0 -71 12 -116t34.5 -71t53 -36t68.5 -10q45 0 77.5 16
t52.5 46.5t29.5 73.5t9.5 97t-9.5 98t-29.5 74.5t-52.5 47.5t-77.5 17q-37 0 -67.5 -10t-52.5 -35t-34.5 -68.5t-13.5 -109.5v-14z" />
    <glyph glyph-name="d" unicode="d" horiz-adv-x="575" 
d="M535 38v-37h-135v1h-2v77q-25 -49 -66.5 -69t-99.5 -20q-48 0 -87 13.5t-67 45t-43 84t-15 129.5q0 78 15 130.5t43 84.5t67 46t87 14q58 0 99.5 -20.5t66.5 -70.5v247h-93v37h135v-692h95zM230 499q-45 0 -77.5 -17t-52.5 -47.5t-29.5 -74.5t-9.5 -98t9.5 -97
t29.5 -73.5t52.5 -46.5t77.5 -16q36 0 66.5 9.5t52.5 34t34.5 67t14.5 108.5v28q-1 66 -13.5 109.5t-34.5 68.5t-52.5 35t-67.5 10z" />
    <glyph glyph-name="p" unicode="p" horiz-adv-x="595" 
d="M40 -225v37h95v676h-95v37h135v-1h2v-78q24 49 65.5 69.5t100.5 20.5q48 0 87 -13.5t67 -45t43 -84t15 -129.5q0 -78 -15 -130.5t-43 -84.5t-67 -46t-87 -14q-59 0 -100.5 20.5t-65.5 70.5v-268h96v-37h-233zM177 264q0 -71 12 -117t34 -72.5t53 -37t69 -10.5
q45 0 77.5 17t52.5 47.5t29.5 74.5t9.5 98t-9.5 97t-29.5 73.5t-52.5 46.5t-77.5 16q-37 0 -67.5 -9.5t-52.5 -34t-34.5 -67t-13.5 -108.5v-14z" />
    <glyph glyph-name="q" unicode="q" horiz-adv-x="595" 
d="M418 -224v304q-25 -50 -66.5 -70.5t-99.5 -20.5q-48 0 -87 14t-67 46t-43 84.5t-15 130.5q0 77 15 129.5t43 84t67 45t87 13.5q58 0 99.5 -20.5t66.5 -69.5v78h2v1h135v-37h-95v-675h95v-37h-137zM250 27q37 0 67.5 10t52.5 35t34.5 68t13.5 110v28q-2 66 -14.5 108.5
t-34.5 67t-52.5 34t-66.5 9.5q-45 0 -77.5 -16t-52.5 -46.5t-29.5 -73.5t-9.5 -97t9.5 -98t29.5 -74.5t52.5 -47.5t77.5 -17z" />
    <glyph glyph-name="l" unicode="l" horiz-adv-x="315" 
d="M177 728v-692h98v-37h-235v37h95v655h-95v37h137z" />
    <glyph glyph-name="i" unicode="i" horiz-adv-x="315" 
d="M177 524v-488h98v-37h-235v37h95v451h-95v37h137zM115 675h62v-44h-62v44z" />
    <glyph glyph-name="t" unicode="t" horiz-adv-x="315" 
d="M135 524v151h42v-151h98v-37h-98v-451h98v-37h-125v1h-15v487h-95v37h95z" />
    <glyph glyph-name="k" unicode="k" horiz-adv-x="544" 
d="M309 37h100l-202 267l-52 -39v-229h110v-37h-225v37h74v656h-74v36h115v-421l31 24v1h1l204 158h-83v36h215v-36h-75l-212 -163l220 -290h68v-36h-215v36z" />
    <glyph glyph-name="j" unicode="j" horiz-adv-x="264" 
d="M184 524v-594q0 -74 -33.5 -114t-100.5 -40q-33 0 -57 12t-40.5 33t-24.5 49t-8 60h37q0 -50 21 -82.5t72 -32.5t71.5 32.5t20.5 82.5v557h-95v37h137zM122 675h62v-44h-62v44z" />
    <glyph glyph-name="u" unicode="u" horiz-adv-x="618" 
d="M500 524v-488h78v-37l-116 1v123q-15 -38 -36.5 -63.5t-46.5 -41.5t-52.5 -22.5t-53.5 -6.5q-41 0 -71.5 11.5t-50.5 45t-30.5 94t-11.5 158.5v188l-79 1v37l116 -1q1 -12 1 -40v-185q0 -89 7.5 -142.5t23 -82t40 -37.5t57.5 -9q31 0 64 10t60 39.5t45 82.5t18 140v188
l-78 1v37z" />
    <glyph glyph-name="n" unicode="n" horiz-adv-x="598" 
d="M103 -1v487l-78 1v37l116 -1v-123q15 37 36 63t46.5 41.5t52.5 22.5t54 7q41 0 71.5 -11.5t50.5 -45t30.5 -94t11.5 -158.5v-189h79v-37l-116 1q-1 12 -1 40q0 24 -0.5 68t0.5 117q0 88 -7.5 142t-23 82.5t-40 37.5t-57.5 9q-31 0 -64 -10.5t-60 -39.5t-45 -82t-18 -140
v-189h78v-37z" />
    <glyph glyph-name="h" unicode="h" horiz-adv-x="610" 
d="M509 38l91 -1v-37l-91 1h-37q-1 12 -1 40q0 24 -0.5 68t0.5 117q0 88 -7.5 142t-23 82.5t-40 37.5t-57.5 9q-31 0 -64 -10.5t-60 -39.5t-45 -82t-18 -140v-189h96v-37l-212 1v37l78 -1v655l-78 1v37l116 -1v-327q15 37 36 63t46.5 41.5t52.5 22.5t54 7q41 0 71.5 -11.5
t50.5 -45t30.5 -94t11.5 -158.5v-188z" />
    <glyph glyph-name="f" unicode="f" horiz-adv-x="380" 
d="M136 522v72q0 74 33.5 114t100.5 40q33 0 57 -12t40.5 -33t24.5 -49t8 -60h-37q0 50 -21 82.5t-72 32.5t-71.5 -32.5t-20.5 -82.5v-72h137v-37h-137v-448h98v-37h-235v37h95v448h-96v37h96z" />
    <glyph glyph-name="e" unicode="e" horiz-adv-x="502" 
d="M463 150q-9 -48 -28.5 -79.5t-47.5 -49.5t-63 -25.5t-74 -7.5q-48 0 -87 13.5t-66 45t-42 84t-15 129.5q0 78 15 130.5t42 84.5t66 46t87 14q47 0 85.5 -13t66 -44t43 -81t17.5 -123h-41l-337 -1v-13q0 -71 12 -116t34.5 -71t53 -36t68.5 -10q68 -1 111 29.5t58 93.5h42z
M252 497q-35 0 -63.5 -8.5t-50 -30t-35 -57.5t-17.5 -91l333 1q-8 85 -48 135.5t-119 50.5z" />
    <glyph glyph-name="r" unicode="r" horiz-adv-x="465" 
d="M41 33h77v453l-78 1v37l116 -1v-123q15 37 36 63t46.5 41.5t52.5 22.5t54 7q41 0 70.5 -11t49.5 -43l-32 -20q-16 22 -38.5 29.5t-51.5 6.5q-31 0 -64 -10.5t-60 -39.5t-45 -82t-18 -140v-191h79v-35h-194v35z" />
    <glyph glyph-name="c" unicode="c" 
d="M416 333q-11 77 -50 120.5t-114 43.5q-38 0 -69 -10.5t-53 -37t-34 -72.5t-12 -117t13.5 -116t37.5 -71t56.5 -36t70.5 -10q74 -1 113 41t50 117h43q-7 -56 -25 -93.5t-44.5 -60.5t-61.5 -33t-77 -10q-48 0 -88.5 13.5t-69.5 45t-45.5 84t-16.5 129.5q0 78 15 130.5
t42 84.5t66 46t87 14q59 0 100 -21t66 -71v80h38v-190h-38v0z" />
    <glyph glyph-name="v" unicode="v" horiz-adv-x="632" 
d="M612 524v-37h-65l-207 -487h-47l-207 487h-66v37h225v-37h-117l189 -442l188 442h-118v37h225z" />
    <glyph glyph-name="w" unicode="w" horiz-adv-x="671" 
d="M651 525v-37h-66l-117 -487h-47l-86 347l-85 -348h-47l-117 487h-66v37h225v-37h-120l102 -443l91 361h37l89 -360l102 443h-120v37h225z" />
    <glyph glyph-name="y" unicode="y" horiz-adv-x="612" 
d="M602 524v-37h-65l-212 -486l1 -1h-1l-97 -224l-42 1h-110v37h126l81 186l-207 487h-66v37h225v-37h-117l186 -437l190 437h-117v37h225z" />
    <glyph glyph-name="x" unicode="x" horiz-adv-x="655" 
d="M400 36h112l-184 209l-181 -209h108v-36h-215v36h62l202 236l-190 216h-69v36h215v-36h-101l170 -193l170 193h-104v36h215v-36h-66l-192 -219l205 -233h58v-36h-215v36z" />
    <glyph glyph-name="z" unicode="z" horiz-adv-x="525" 
d="M447 160h38v-160h-445v36l387 452h-335v-114h-38v150h418v-36l-387 -452h362v124z" />
    <glyph glyph-name="a" unicode="a" horiz-adv-x="566" 
d="M45 386q11 78 59.5 112.5t126.5 34.5q44 0 82 -7t66.5 -23.5t44.5 -44.5t16 -70v-6v-347h96v-37h-96v-1h-38v1h-1v37h1v28q-26 -42 -70 -57.5t-104 -15.5q-39 0 -74.5 7.5t-63 26t-44 48.5t-15.5 75q0 19 5 42.5t24.5 47t58.5 43t108 29.5q49 7 82.5 11.5t54 12t29.5 20
t9 35.5q0 57 -42.5 82.5t-126.5 25.5q-59 0 -99 -23.5t-49 -86.5h-40zM75 147q0 -35 13 -58.5t35 -37t50 -19t57 -5.5q89 0 129.5 42.5t42.5 126.5v117q-23 -12 -64.5 -21t-110.5 -22q-47 -9 -76 -21.5t-46 -28t-23.5 -34t-6.5 -39.5z" />
    <glyph glyph-name="s" unicode="s" horiz-adv-x="490" 
d="M395 522h37v-135h-37q-9 63 -49 86.5t-99 23.5q-83 0 -126 -21t-43 -77q0 -23 10.5 -38.5t32.5 -26t55 -18.5t77 -16q69 -13 108 -31t58.5 -39t24.5 -42t5 -40q1 -45 -15.5 -75t-44 -48.5t-63 -26t-74.5 -7.5q-60 0 -104 11t-70 48v-48h-37v185h37v-1q0 -88 40.5 -123
t131.5 -35q29 0 57 5.5t49.5 19t35 37t13.5 58.5q0 21 -6.5 38t-23.5 31t-46.5 25t-75.5 19q-67 11 -108.5 23.5t-65 28.5t-31.5 37t-8 49q0 42 16 68.5t44.5 41.5t66.5 20t82 5q51 0 87 -15t59 -47v50z" />
    <glyph glyph-name="g" unicode="g" horiz-adv-x="525" 
d="M236 -227q-39 0 -76 5.5t-66 21t-46.5 43t-17.5 71.5q0 53 27.5 81.5t68.5 41.5q-45 19 -45 61q0 25 20.5 46t55.5 34q-44 17 -71.5 58t-27.5 113q0 51 14 86.5t38 58t56 32.5t68 10q39 0 72 -12h179v-37h-126q20 -23 31 -56.5t11 -81.5q0 -50 -12.5 -85t-34.5 -57
t-53 -32t-67 -10h-7q-47 -2 -77 -20.5t-30 -46.5q0 -29 32.5 -38t82.5 -9h1q34 0 70.5 -5t66.5 -20t49.5 -42t19.5 -70q0 -44 -17.5 -71.5t-46.5 -43t-66 -21t-76 -5.5zM98 349q0 -42 11.5 -70.5t31 -46t44.5 -25t51 -7.5q64 0 96 42t32 107q0 66 -32 109t-96 43
q-26 0 -51 -8t-44.5 -26t-31 -47t-11.5 -71zM236 -188q26 0 56 3t55.5 13.5t42.5 31t17 54.5t-17 54.5t-42.5 31t-55.5 13.5t-56 3t-56 -3t-55 -13.5t-41.5 -31t-16.5 -54.5t16.5 -54.5t41.5 -31t55 -13.5t56 -3z" />
    <glyph glyph-name="Adieresis" unicode="&#xc4;" horiz-adv-x="692" 
d="M457 -1v37h125l-91 259h-290l-92 -259h126v-37h-235v37h66l237 655h-91v37h273v-37h-94l236 -655h65v-37h-235zM215 332h263l-131 359h-1zM407 843h62v-44h-62v44zM227 844h62v-44h-62v44z" />
    <glyph glyph-name="adieresis" unicode="&#xe4;" horiz-adv-x="552" 
d="M38 386q11 78 59.5 112.5t126.5 34.5q44 0 82 -7t66.5 -23.5t44.5 -44.5t16 -70v-11v-342h96v-37h-96v-1h-38v1h-1v37h1v28q-26 -42 -70 -57.5t-104 -15.5q-39 0 -74.5 7.5t-63 26t-44 48.5t-15.5 75q0 19 5 42.5t24.5 47t58.5 43t108 29.5q49 7 82.5 11.5t54 12t29.5 20
t9 35.5q0 57 -42.5 82.5t-126.5 25.5q-59 0 -99 -23.5t-49 -86.5h-40zM68 147q0 -35 13 -58.5t35 -37t50 -19t57 -5.5q91 0 131.5 45t40.5 133v108q-23 -12 -64.5 -21t-110.5 -22q-47 -9 -76 -21.5t-46 -28t-23.5 -34t-6.5 -39.5zM315 676h62v-44h-62v44zM135 677h62v-44
h-62v44z" />
    <glyph glyph-name="Edieresis" unicode="&#xcb;" horiz-adv-x="589" 
d="M504 695l-337 -1v-294l276 2v-37l-276 -2v-323l336 1l-1 192h42l1 -192v-37l-378 -1h-123v37h78v654h-78v37h78l423 1v-165h-41v128zM193 844h62v-44h-62v44zM373 843h62v-44h-62v44z" />
    <glyph glyph-name="edieresis" unicode="&#xeb;" 
d="M143 673h62v-44h-62v44zM323 672h62v-44h-62v44zM463 150q-9 -48 -28.5 -79.5t-47.5 -49.5t-63 -25.5t-74 -7.5q-48 0 -87 13.5t-66 45t-42 84t-15 129.5q0 78 15 130.5t42 84.5t66 46t87 14q47 0 85.5 -13t66 -44t43 -81t17.5 -123h-41l-337 -1v-13q0 -71 12 -116
t34.5 -71t53 -36t68.5 -10q68 -1 111 29.5t58 93.5h42zM252 497q-35 0 -63.5 -8.5t-50 -30t-35 -57.5t-17.5 -91l333 1q-8 85 -48 135.5t-119 50.5z" />
    <glyph glyph-name="Odieresis" unicode="&#xd6;" horiz-adv-x="606" 
d="M33 363q0 105 18 177t52.5 116.5t84.5 64.5t114 20q63 0 113 -20t85.5 -64.5t54 -116.5t18.5 -177t-18.5 -176.5t-54 -115.5t-85.5 -63.5t-113 -19.5q-64 0 -114 19.5t-84.5 63.5t-52.5 115.5t-18 176.5zM74 363q0 -101 17 -166t47 -103t72.5 -53t93.5 -15q62 0 106 22.5
t71.5 66t40.5 106.5t13 142t-13 142t-40.5 107t-71.5 68t-106 24q-51 0 -93.5 -16t-73 -55t-47 -104.5t-16.5 -165.5zM181 844h62v-44h-62v44zM361 843h62v-44h-62v44z" />
    <glyph glyph-name="odieresis" unicode="&#xf6;" horiz-adv-x="502" 
d="M131 677h62v-44h-62v44zM311 676h62v-44h-62v44zM40 260q0 78 15 130.5t42 84.5t66 46t87 14t87 -14t67 -46t43 -84.5t15 -130.5q0 -77 -15 -129.5t-43 -84t-67 -45t-87 -13.5t-87 13.5t-66 45t-42 84t-15 129.5zM84 260q0 -71 12 -116t34.5 -71t53 -36t68.5 -10
q45 0 77.5 16t52.5 46.5t29.5 73.5t9.5 97t-9.5 98t-29.5 74.5t-52.5 47.5t-77.5 17q-38 0 -69 -10.5t-53 -37t-34 -72.5t-12 -117z" />
    <glyph glyph-name="Udieresis" unicode="&#xdc;" horiz-adv-x="694" 
d="M664 728v-37h-75v-364q0 -105 -19 -171t-52 -103.5t-76.5 -51t-93.5 -13.5q-54 0 -98.5 17.5t-76 60t-49 114.5t-17.5 182v329h-77v37h235v-37h-119q1 -38 1 -118.5v-210.5q0 -100 14.5 -165.5t41 -104t64 -54t83.5 -15.5q47 0 84 13.5t63.5 51t40.5 104t14 171.5l-1 328
h-122v37h235zM406 843h62v-44h-62v44zM226 844h62v-44h-62v44z" />
    <glyph glyph-name="udieresis" unicode="&#xfc;" horiz-adv-x="608" 
d="M452 123q-15 -38 -36.5 -63.5t-46.5 -41.5t-52.5 -22.5t-53.5 -6.5q-41 0 -71.5 11.5t-50.5 45t-30.5 94t-11.5 158.5v188l-79 1v37l116 -1q1 -12 1 -40v-185q0 -89 7.5 -142.5t23 -82t40 -37.5t57.5 -9q31 0 64 10t60 39.5t45 82.5t18 140v188l-78 1v37l116 -1v-488h78
v-37l-116 1v123zM338 676h62v-44h-62v44zM158 677h62v-44h-62v44z" />
    <glyph glyph-name="exclam" unicode="!" horiz-adv-x="150" 
d="M54 728h42v-488h-42v488zM44 91h62v-44h-62v44z" />
    <glyph glyph-name="one" unicode="1" horiz-adv-x="323" 
d="M139 726v2h42v-692h98v-37h-235v37h95v648l-95 -51v42z" />
    <glyph glyph-name="quotedbl" unicode="&#x22;" horiz-adv-x="228" 
d="M140 650v102h44v-102h-44zM44 649v102h44v-102h-44z" />
    <glyph glyph-name="quotesingle" unicode="'" horiz-adv-x="132" 
d="M44 649v102h44v-102h-44z" />
    <glyph glyph-name="zero" unicode="0" horiz-adv-x="528" 
d="M44 363q0 105 10.5 177t35.5 116.5t67 64.5t106 20q63 0 105.5 -20t68 -64.5t36.5 -116.5t11 -177t-11 -176.5t-36.5 -115.5t-68 -63.5t-105.5 -19.5q-64 0 -106 19.5t-67 63.5t-35.5 115.5t-10.5 176.5zM85 363q0 -101 9 -166t30 -103t55.5 -53t85.5 -15q62 0 98 22.5
t54.5 66t23.5 106.5t5 142t-5 142t-23.5 107t-54.5 68t-98 24q-51 0 -85.5 -16t-55.5 -55t-30 -104.5t-9 -165.5z" />
    <glyph glyph-name="two" unicode="2" horiz-adv-x="481" 
d="M44 37q0 55 24 102t60.5 88.5t79 78.5t81 72t66.5 70t34 72q7 42 -1 76t-27.5 58t-49.5 37.5t-67 13.5q-30 0 -56.5 -11t-46.5 -33t-33 -56t-15 -81h-37q1 98 49.5 156.5t136.5 59.5q44 0 81.5 -14t63 -41.5t37 -69t3.5 -95.5q-7 -47 -34.5 -86t-64 -74.5t-78 -69.5
t-77.5 -72t-60.5 -82t-28.5 -99l316 1v125h37v-163h-393v37v0z" />
    <glyph glyph-name="four" unicode="4" horiz-adv-x="523" 
d="M44 200l324 529l4 -2v2h36v-529h71v-34h-71v-129h71v-37h-235v37h128v129h-328v34zM372 200v464l-287 -464h287z" />
    <glyph glyph-name="seven" unicode="7" horiz-adv-x="549" 
d="M242 0h-41l264 690h-384l1 -79h-37l-1 116h461v-37z" />
    <glyph glyph-name="three" unicode="3" 
d="M247 403h1h5h1q58 2 94 40t36 107q0 72 -40 110t-101 38q-25 0 -50.5 -7t-46.5 -24.5t-34 -47.5t-13 -76q0 -1 -6 -0.5t-13 0.5h-19q0 54 15 91t40.5 60t57.5 33t67 10t67 -10t57 -32.5t39.5 -58t14.5 -86.5q0 -71 -25 -109t-64 -54q24 -10 46 -26t38.5 -39t26.5 -54.5
t10 -71.5q0 -59 -18.5 -98t-48 -63t-66 -34t-71.5 -10t-71.5 11.5t-66 36t-48 63.5t-18.5 94h20q8 0 14 -0.5t6 0.5q0 -44 16 -75.5t40 -51.5t53 -29t55 -9q22 0 50.5 8t54 27t42.5 50.5t17 79.5t-16.5 80t-41.5 51.5t-53.5 27.5t-52.5 8v40z" />
    <glyph glyph-name="five" unicode="5" 
d="M83 195q5 -50 20 -82.5t37 -51.5t50 -27t59 -8q84 -1 125.5 54t41.5 156q0 102 -41.5 157t-125.5 55q-40 0 -75 -13t-58 -47h-37v340h327v-36h-290v-257q26 23 59.5 37t71.5 14t76 -12.5t68 -41.5t47.5 -77t16.5 -119q-2 -78 -22 -126.5t-50.5 -75t-66.5 -35.5t-69 -9
q-40 0 -74 10.5t-60.5 35t-44 63.5t-24.5 96h39z" />
    <glyph glyph-name="eight" unicode="8" horiz-adv-x="503" 
d="M254 737q34 -1 65.5 -11.5t55.5 -33t38 -57.5t14 -85q0 -71 -26 -109t-67 -54q24 -10 47 -26t40 -39t27.5 -54.5t10.5 -71.5q0 -59 -19.5 -98t-49.5 -63t-67 -34t-72 -10t-72 10t-67 34t-49 63t-19 98q0 40 10 71.5t27.5 54.5t39.5 39t46 26q-40 16 -65.5 54t-25.5 109
q0 51 14.5 86.5t39.5 58t57 32.5t67 10zM251 31q22 0 51.5 8t55 27t43.5 50.5t18 79.5t-17.5 80t-43 51.5t-55 27.5t-53.5 8t-53 -8.5t-54 -28t-42 -51.5t-17 -79q0 -48 17.5 -79.5t43.5 -50.5t54.5 -27t51.5 -8zM392 550q0 72 -40 109.5t-100 38.5q-61 0 -101 -38t-40 -110
q0 -69 37 -107t96 -40h6h1h5h1q59 2 97 40t38 107z" />
    <glyph glyph-name="nine" unicode="9" horiz-adv-x="538" 
d="M263 300q-40 0 -78.5 12t-69 39t-49 70.5t-18.5 107.5q0 63 21 106.5t52.5 71t69.5 40.5t71 13q28 0 60.5 -9t61.5 -29.5t52 -52t34 -76.5q24 -86 24 -227q0 -105 -12.5 -177t-40 -116.5t-71.5 -64t-107 -19.5q-49 0 -86 11.5t-64 36.5t-43.5 65t-25.5 98h41
q8 -50 22.5 -83.5t37 -53t52.5 -28t68 -8.5q62 0 99.5 23t58 67t27 107t6.5 142v28t-1 28q-10 -24 -26 -46t-39.5 -39t-55 -27t-71.5 -10zM263 340q31 0 62 8t56 29t40.5 58t15.5 94q0 53 -18 89.5t-44.5 59t-57 32.5t-55.5 10t-55 -11.5t-56 -34.5t-43.5 -59t-17.5 -86
q0 -54 15.5 -90.5t40 -58t55.5 -31t62 -9.5z" />
    <glyph glyph-name="six" unicode="6" horiz-adv-x="538" 
d="M275 459q40 0 78.5 -13.5t69 -42.5t49 -74t18.5 -109q0 -63 -21 -107t-52.5 -71.5t-69.5 -40t-71 -12.5q-29 0 -61.5 9t-61.5 29.5t-52 52t-33 76.5q-13 43 -18.5 99t-5.5 128q0 105 18 177t49.5 116.5t73.5 64t90 19.5q49 0 86 -11.5t64 -36.5t43.5 -65t25.5 -98h-41
q-8 50 -22.5 83.5t-37 53t-52.5 28t-68 8.5q-47 0 -83 -23t-60 -67t-36 -107t-12 -142v-54q10 25 26.5 48.5t40 41.5t54.5 29t72 11zM275 419q-31 0 -62 -10t-56 -32.5t-40.5 -61t-15.5 -95.5q0 -53 18 -89.5t44 -59t56.5 -32.5t55.5 -10t55 11t56.5 34t44 59.5t17.5 86.5
q0 54 -15.5 92t-40 61.5t-55.5 34.5t-62 11z" />
    <glyph glyph-name="parenleft" unicode="(" horiz-adv-x="415" 
d="M315 -65q-134 0 -202.5 113t-68.5 322q0 211 68.5 319.5t202.5 108.5v-38q-67 0 -112 -31.5t-72 -85t-38 -124t-11 -149.5t11.5 -151t39 -127t72 -87t110.5 -32v-38z" />
    <glyph glyph-name="parenright" unicode=")" horiz-adv-x="415" 
d="M100 -27q66 0 110.5 32t72 87t39 127t11.5 151t-11 149.5t-38 124t-72 85t-112 31.5v38q134 0 202.5 -108.5t68.5 -319.5q0 -209 -69 -322t-202 -113v38z" />
    <glyph glyph-name="hyphen" unicode="-" 
d="M451 313v-37h-405v37h405z" />
    <glyph glyph-name="period" unicode="." horiz-adv-x="145" 
d="M105 -1h-65v47h65v-47z" />
    <glyph glyph-name="slash" unicode="/" horiz-adv-x="315" 
d="M64 -117h-44l230 845h45z" />
    <glyph glyph-name="colon" unicode=":" horiz-adv-x="165" 
d="M77 -1v65h47v-65h-47zM78 460v65h47v-65h-47z" />
    <glyph glyph-name="semicolon" unicode=";" horiz-adv-x="256" 
d="M104 463v62h44v-62h-44zM166 1l-53 -120h-39l58 120h-48v37h82v-37z" />
    <glyph glyph-name="comma" unicode="," horiz-adv-x="180" 
d="M136 1l-53 -120h-39l58 120h-48v37h82v-37z" />
    <glyph glyph-name="germandbls" unicode="&#xdf;" horiz-adv-x="592" 
d="M438 485h-261v-448h98v-37h-235v37h95v557q0 74 33.5 114t100.5 40q33 0 57 -12t40.5 -33t24.5 -49t8 -60h-37q0 50 -21 82.5t-72 32.5t-71.5 -32.5t-20.5 -82.5v-72h307v-35h1l-1 -2h-1l-181 -214q14 5 28 8t30 3q40 0 75 -12.5t61 -39.5t41 -69.5t15 -102.5
q0 -71 -11.5 -120.5t-35.5 -80t-60 -44t-85 -13.5v35q46 0 76 15.5t47.5 45t24.5 70.5t7 92q0 40 -8 74.5t-26 60.5t-47.5 41t-71.5 15q-36 0 -64.5 -11t-48.5 -37h-46z" />
    <glyph glyph-name="quotedblleft" unicode="&#x201c;" 
d="M275 679l53 120h39l-58 -120h48v-37h-82v37zM129 680l53 120h39l-58 -120h48v-37h-82v37z" />
    <glyph glyph-name="quotedblright" unicode="&#x201d;" 
d="M221 761l-53 -120h-39l58 120h-48v37h82v-37zM367 760l-53 -120h-39l58 120h-48v37h82v-37z" />
    <glyph glyph-name="less" unicode="&#x3c;" horiz-adv-x="620" 
d="M540 676v-43l-463 -293l463 -300v-40l-500 322v37z" />
    <glyph glyph-name="greater" unicode="&#x3e;" horiz-adv-x="620" 
d="M580 359v-37l-500 -322v40l463 300l-463 293v43z" />
    <glyph glyph-name="plus" unicode="+" horiz-adv-x="585" 
d="M308 501h233v-37h-233v-243h-37v243h-227v37h227v228h37v-228z" />
    <glyph glyph-name="asterisk" unicode="*" horiz-adv-x="437" 
d="M201 635v166h36v-166l142 83l18 -30l-144 -83l144 -83l-18 -30l-142 82v-165h-36v166l-143 -83l-18 30l143 83l-143 83l18 30z" />
    <glyph glyph-name="equal" unicode="=" 
d="M451 313v-37h-405v37h405zM451 523v-37h-405v37h405z" />
    <glyph glyph-name="dollar" unicode="$" horiz-adv-x="490" 
d="M118 728h235v-37h-98v-50q97 -1 140 -62v50h37v-135h-37q-9 61 -46.5 84.5t-93.5 25.5v-198q68 -13 106.5 -31t58 -38.5t24.5 -41.5t5 -40q1 -45 -15 -75t-43 -48t-62.5 -26t-73.5 -8v-62h98v-37h-235v37h95v63q-46 2 -80 15t-55 43v-48h-37v185h37v-1q0 -78 32 -114
t103 -43v239q-54 11 -87.5 23t-52.5 27.5t-26 35t-7 45.5q0 38 13 63t36 40t54.5 22t69.5 9v51h-95v37zM405 255q0 20 -6.5 37t-23 31t-45.5 25t-75 19v-232q28 0 55 6t48 20t34 36.5t13 57.5zM213 414v189q-67 -3 -101 -24.5t-34 -72.5q0 -41 33.5 -59.5t101.5 -32.5z" />
    <glyph glyph-name="minus" unicode="&#x2212;" 
 />
    <glyph glyph-name="numbersign" unicode="#" horiz-adv-x="517" 
d="M163 341l19 93h-111l8 37h111l33 155h39l-33 -155h104l33 155h38l-33 -155h102l-8 -37h-102l-19 -93h102l-7 -37h-103l-36 -172h-38l36 172h-105l-36 -172h-38l36 172h-112l8 37h112zM201 341h105l19 93h-104z" />
    <glyph glyph-name="backslash" unicode="\" 
d="M110 728h45l230 -845h-44z" />
    <glyph glyph-name="bracketleft" unicode="[" 
d="M374 791v-37h-193v-775h193v-37h-235v849h235z" />
    <glyph glyph-name="bracketright" unicode="]" 
d="M374 -58h-235v37h193v775h-193v37h235v-849z" />
    <glyph glyph-name="asciicircum" unicode="^" horiz-adv-x="673" 
d="M320 728h37l272 -477h-40l-250 440l-252 -440h-43z" />
    <glyph glyph-name="ampersand" unicode="&#x26;" horiz-adv-x="623" 
d="M529 3q0 1 -22.5 22t-57.5 56q-55 -87 -178 -87q-39 0 -79.5 10.5t-73 34.5t-53.5 64t-21 100q0 42 10.5 74t28 55.5t41 40.5t49.5 31q-30 48 -48.5 91t-18.5 79q0 48 14.5 79t37 49t51 25t55.5 7q27 -1 55.5 -6.5t52.5 -22t39.5 -45.5t15.5 -76q0 -45 -18 -74.5
t-46.5 -50.5t-64 -36.5t-70.5 -31.5q44 -62 99.5 -125.5t106.5 -117.5q15 45 15 106h20h20q0 -81 -23 -139q48 -50 80 -81t33 -31h-50zM193 374q-23 -12 -43 -27.5t-34.5 -36t-23 -47t-8.5 -60.5q0 -49 18 -81.5t45.5 -51.5t60.5 -27t63 -8q104 0 147 77q-53 54 -114 122.5
t-111 139.5zM392 584q0 33 -12 54.5t-30.5 33.5t-42 17t-46.5 5t-44.5 -6.5t-38.5 -21t-27 -37t-10 -55.5q0 -29 18.5 -68.5t48.5 -84.5q34 15 67 28.5t59 31t42 42t16 61.5z" />
    <glyph glyph-name="percent" unicode="%" horiz-adv-x="653" 
d="M41 508q0 -43 10.5 -73t28 -48.5t39.5 -27t45 -8.5t45.5 8.5t40 27t28 48.5t10.5 73t-10.5 73.5t-28 50t-40 28t-45.5 8.5t-45 -8.5t-39.5 -28t-28 -50t-10.5 -73.5zM80 508q0 40 7 64t19 37t27.5 17t32.5 4q43 0 64 -31.5t21 -91.5q0 -118 -85 -118q-17 0 -32.5 5
t-27.5 18.5t-19 36.5t-7 59zM170 -30h-41l366 791h42zM365 189q0 -43 10.5 -73t28 -48.5t39.5 -27t45 -8.5t45.5 8.5t40 27t28 48.5t10.5 73t-10.5 73.5t-28 50t-40 28t-45.5 8.5t-45 -8.5t-39.5 -28t-28 -50t-10.5 -73.5zM404 189q0 40 7 64t19 37t27.5 17t32.5 4
q42 0 63.5 -31.5t21.5 -91.5q0 -118 -85 -118q-17 0 -32.5 5t-27.5 18.5t-19 36.5t-7 59z" />
    <glyph glyph-name="question" unicode="?" 
d="M204 206q0 65 11.5 103.5t29 61.5t39 35t42 25t37.5 32.5t26 56.5q10 41 4 75t-25.5 58.5t-51 38t-72.5 13.5q-67 -1 -106.5 -44t-44.5 -137h-37q0 49 11.5 88.5t34.5 68t57.5 44t82.5 15.5t86 -14t62.5 -41.5t34.5 -69t2 -95.5q-7 -47 -22.5 -70.5t-34.5 -37t-40 -22.5
t-39 -28.5t-31 -55t-16 -100.5h-40zM204 47v65h47v-65h-47z" />
    <glyph glyph-name="at" unicode="@" horiz-adv-x="840" 
d="M765 278q0 125 -30.5 209t-79.5 135t-111 73t-125 22q-81 0 -145 -30.5t-108.5 -87.5t-67.5 -138t-23 -183q0 -101 23.5 -182t67.5 -138t108 -87.5t145 -30.5q59 0 113.5 18.5t98.5 59.5v-55q-45 -29 -98 -47t-112 -18q-78 0 -148.5 26t-123.5 83.5t-84 148.5t-31 222
q0 130 31 221t84 148t123.5 82.5t148.5 25.5q79 0 149.5 -25.5t122.5 -82.5t82.5 -148t30.5 -221q0 -89 -18 -157t-43 -121h-156v78q-30 -48 -74 -68t-92 -20t-87 13.5t-67 45t-43 84t-15 129.5q0 78 15 130.5t43 84.5t67 46t87 14t86.5 -14t65.5 -46t41.5 -84.5
t14.5 -130.5v-224h85q20 45 34.5 104t14.5 136zM589 262q0 71 -12 117t-34 72.5t-53 37t-69 10.5q-45 0 -77.5 -17t-52.5 -47.5t-29.5 -74.5t-9.5 -98t9.5 -97t29.5 -73.5t52.5 -46.5t77.5 -16q36 0 66.5 9.5t52.5 34t34.5 67t14.5 108.5v14z" />
    <glyph glyph-name="underscore" unicode="_" 
d="M483 37v-37h-465v37h465z" />
    <glyph glyph-name="multiply" unicode="&#xd7;" 
 />
    <glyph glyph-name="braceleft" unicode="{" 
 />
    <glyph glyph-name="Euro" unicode="&#x20ac;" horiz-adv-x="791" 
d="M699 571q-11 38 -34.5 64t-55 41.5t-69 22.5t-77.5 7q-50 -1 -95 -16t-81 -47t-61 -81.5t-34 -118.5h453l-8 -37h-449q-1 -11 -1 -21.5v-21.5v-26t2 -24h429l-7 -37h-418q10 -68 35 -116t61 -79t80.5 -46t93.5 -15q45 0 86 8.5t74 29.5t55.5 55.5t30.5 86.5h38
q-16 -107 -85 -162t-201 -55q-61 0 -113.5 18t-92.5 54.5t-67 91.5t-37 129h-106v37h102q-1 12 -1 24.5v25.5v21.5t1 21.5h-103l1 37h106q9 76 35.5 132t67 93.5t93 56t114.5 18.5q89 0 157 -26t95 -76z" />
    <glyph glyph-name="O" unicode="O" horiz-adv-x="606" 
d="M33 363q0 105 18 177t52.5 116.5t84.5 64.5t114 20q63 0 113 -20t85.5 -64.5t54 -116.5t18.5 -177t-18.5 -176.5t-54 -115.5t-85.5 -63.5t-113 -19.5q-64 0 -114 19.5t-84.5 63.5t-52.5 115.5t-18 176.5zM74 363q0 -101 17 -166t47 -103t72.5 -53t93.5 -15q62 0 106 22.5
t71.5 66t40.5 106.5t13 142t-13 142t-40.5 107t-71.5 68t-106 24q-51 0 -93.5 -16t-73 -55t-47 -104.5t-16.5 -165.5z" />
    <glyph glyph-name="quoteleft" unicode="&#x2018;" 
d="M199 680l53 120h39l-58 -120h48v-37h-82v37z" />
    <glyph glyph-name="quoteright" unicode="&#x2019;" 
d="M301 763l-53 -120h-39l58 120h-48v37h82v-37z" />
    </font>
</defs>
</svg>
